#TITLE:Andy Asteroids;
#SUBTITLE:EarthWorm Jim;
#ARTIST:Playmates;
#TITLETRANSLIT:;
#SUBTITLETRANSLIT:;
#ARTISTTRANSLIT:;
#CREDIT:;
#BANNER:Andy Asteroids.jpg;
#BACKGROUND:Andy Asteroids-bg.jpg;
#LYRICSPATH:;
#CDTITLE:!macTitle.png;
#MUSIC:Andy Asteroids.mp3;
#OFFSET:0.068;
#SAMPLESTART:1.571;
#SAMPLELENGTH:12.000;
#SELECTABLE:YES;
#BPMS:0.000=144.400,96.500=288.840,98.500=144.420,101.500=72.210,102.000=144.420;
#STOPS:93.000=0.215
;
#BGCHANGES:;
// cache tags:
#FIRSTBEAT:1.000;
#LASTBEAT:240.000;
#SONGFILENAME:Songs/Music V.I.P ^_^/Andy Asteroids (MacGravel)/Andy Asteroids.sm;
#HASMUSIC:1;
#HASBANNER:1;
#MUSICLENGTH:104.732;
// end cache tags

//---------------dance-single - ----------------
#NOTES:
     dance-single:
     :
     Hard:
     11:
     1.000,0.974,0.306,0.038,1.000,844.000,32.000,4.000,0.000,0.000:

0000
1000
0001
0100
,
0001
0010
0100
1000
0010
1000
0100
0010
0001
0100
0010
0100
0001
0010
0100
1000
,
0001
1000
0010
1000
0100
0010
0001
0010
0100
0000
1010
0000
0100
0000
0011
0000
,
0001
0000
1000
0000
0100
0000
1000
0000
0010
0000
1000
0000
0001
0000
1000
0000
0100
0000
0010
0000
0001
0000
0100
0000
0010
1000
0010
0000
0100
0000
0001
0000
,
1000
0100
0010
0001
0100
0010
0100
0001
0010
1000
0010
0001
0010
1000
0010
0001
,
1000
0100
0000
0000
0110
0000
0000
0000
0100
0001
0000
0000
0101
0000
0000
0000
0001
0000
0010
0000
0100
0000
1000
0000
0010
0000
1000
0000
0100
0000
0010
0000
,
0001
0000
0100
0000
0010
0000
0100
0000
0001
0000
1000
0000
0010
0000
0100
0000
0001
0010
0000
0000
0010
0100
0000
0000
0100
0000
1000
0000
0010
0000
0100
0000
,
0001
0000
1000
0000
0100
0000
0010
0000
0001
0000
0010
0000
0100
0000
1000
0000
0001
0010
0000
0000
0100
1000
0000
0000
0001
0000
0010
0000
0001
0000
0010
0000
,
0100
1000
0000
0000
0101
0000
0000
0000
0010
0100
0000
0000
1001
0000
0000
0000
1000
0000
0000
0000
0100
0000
0010
0000
0001
0000
0000
0000
0010
0000
0100
0000
,
0010
0000
0001
1000
0010
1000
0100
0010
0001
0000
0100
0010
0100
0000
0001
0000
,
0010
0000
0100
0000
1000
0100
0010
0001
0100
0000
0010
1000
0010
0000
1000
0100
,
0010
0000
0001
0000
0100
0000
0010
0000
1000
0000
0001
1000
0001
0000
1000
0001
,
1000
0000
0001
1000
0001
0100
0010
1000
0001
0100
0010
0100
0001
0010
0100
0010
,
0001
1000
0100
1000
0010
1000
0100
0010
0001
0000
0100
0001
0100
0000
0001
1000
,
0001
0000
0100
0000
0001
0010
0100
1000
0001
0010
0100
1000
0010
0100
0001
0000
,
1000
0100
0010
0001
0100
0010
0100
0001
0010
0100
0010
1000
0010
0100
0010
1000
,
0010
0100
0010
0001
0100
0010
1000
0000
0001
0100
0010
0100
0001
0010
1000
0000
,
0010
0001
1000
0100
1000
0010
1000
0100
1000
0010
1000
0001
0100
0010
0100
0001
,
0010
0100
0010
0001
1000
0100
1000
0010
1000
0100
1000
0100
0010
0001
0010
0100
,
0010
0001
0000
0000
1000
0100
0000
0000
0001
0000
0010
0000
0100
0000
1000
0000
0010
0000
1000
0000
0100
0000
0010
0000
0001
0000
0100
0000
0010
0000
0100
0000
,
0001
0010
0100
0010
0001
1000
0100
1000
0010
1000
0100
1000
0010
1000
0001
0100
,
0010
0100
0001
0010
0100
0010
0001
0000
1000
0100
1000
0010
1000
0100
0010
0001
,
1000
0000
0000
0010
0000
0000
0100
0000
0000
0001
0000
0000
1000
0000
0000
0100
0000
0000
0010
0000
0000
0100
0000
0000
1000
0000
0100
0000
1000
0000
0100
0000
0000
0000
0000
0000
0001
0000
0010
0000
0001
0000
0010
0000
0000
0000
0000
0000
,
1000
0001
0100
0010
1001
0000
0001
0000
1000
0001
1000
0000
0001
1000
0001
0000
,
1000
0001
2001
0000
0000
0000
0000
0000
3000
0000
0001
0010
0100
1000
0010
0100
,
0001
0000
1000
0000
0001
0010
0100
0000
1000
0000
0001
0000
0210
0000
0000
0000
0301
0000
1000
0000
0010
0000
1000
0000
0001
0000
0010
0000
0100
0000
0010
0000
,
0001
0000
0010
0000
0001
0000
1000
0000
0100
0000
1000
0000
0220
0000
0000
0000
0000
0000
0330
0000
0000
0000
0000
0000
1000
0000
0000
0100
0000
0000
0010
0000
0000
0001
0000
0000
0100
0000
0000
0010
0000
0000
0100
0000
0000
0001
0000
0000
,
0010
0100
0010
0001
1000
0100
1000
0000
0010
1000
0100
1000
0010
0100
0001
0100
,
0010
0100
0001
0010
0100
0010
0001
1000
0100
1000
0010
1000
0100
0010
0001
0010
,
0100
0010
0001
0010
1000
0010
0001
0000
1000
0100
0010
0001
0010
0100
1000
0001
,
1000
0010
0100
0001
0100
0010
0100
0000
0001
0010
0100
1000
0010
1000
0100
1000
,
0010
0100
0001
0100
0010
0100
0001
0010
0100
0010
1000
0010
0001
0100
0001
0100
,
0010
1000
0001
1000
0100
1000
0010
0100
0001
0100
0010
0100
0001
0010
0100
0010
,
0001
0000
0010
0000
0001
0000
1000
0000
0001
0000
1000
0000
0010
0000
1000
0000
0100
0010
0000
0000
0101
0000
0000
0000
0010
1000
0000
0000
1001
0000
0000
0000
,
1000
0100
0001
0100
1000
0100
0010
0001
0010
0100
0010
0001
0100
0010
0100
1000
,
0100
0010
0001
0010
0100
0001
0010
0000
0100
0010
0001
0010
1000
0010
0001
1000
,
0010
1000
0100
0001
0100
0010
0001
0010
0100
0010
1000
0010
0001
0100
0010
0100
,
0001
0000
1000
0000
0010
0000
1000
0000
0001
0000
0010
0000
0100
0000
0010
0000
0100
0000
1000
0000
0001
0000
0010
0000
0001
0100
0000
0000
0010
1000
0000
0000
,
0001
0010
0100
1000
0010
1000
0100
1000
0010
0100
0001
0100
0010
0100
0001
0010
,
1000
0010
0001
0010
0100
1000
0010
1000
0100
0001
0100
0010
0001
0010
0100
0010
,
0001
1000
0100
0000
1000
0010
1000
0100
0010
0001
0010
0100
0010
0001
0100
0010
,
0100
1000
0100
0010
0001
0010
0100
0001
0010
1000
0010
0001
1000
0100
1000
0010
,
1000
0100
1000
0000
0001
0000
1000
0001
1000
0000
0001
1000
0001
0000
1000
0100
,
1000
0010
0100
0001
0100
0000
0001
0010
0100
0000
0010
0001
0010
0000
0100
0000
,
1000
0001
1000
0010
0100
0001
0100
0010
0100
0000
0001
0000
0010
0100
0010
0001
,
1000
0100
1000
0010
1000
0100
0010
0001
0100
0010
0100
0001
1000
0010
1000
0100
,
1000
0000
0010
0000
0100
0001
1000
0100
1000
0100
0010
0001
0100
0010
0100
0001
,
0010
0100
0010
0001
1000
0100
1000
0010
1000
0100
0010
0001
0100
0010
0100
0001
,
0010
0000
1100
0000
0010
0000
1001
0000
0010
0000
0101
0000
0001
0010
0100
0010
,
0001
0000
1100
0000
0010
0000
0101
0000
1000
0100
0010
0001
0100
0010
1000
0100
,
0010
0000
0110
0000
0001
0000
1010
0000
0001
0000
1100
0000
0001
0010
0100
1000
,
0010
0000
1100
0000
0010
0000
0101
0000
0010
0100
0001
0010
0100
0010
0001
1000
,
0100
0000
0011
0000
0100
0000
1001
0000
0100
0000
1010
0000
0001
0100
0010
0100
,
0001
0000
0110
0000
0001
0000
1100
0000
0010
1000
0001
1000
0100
0010
0001
0100
,
0010
0100
0001
0010
0100
0010
0100
1000
0010
1000
0100
1000
0010
0100
0001
0100
,
0010
1000
0000
0000
0001
0000
0000
0000
0010
0100
0000
0000
0010
0000
0000
0000
1000
0000
0100
0000
0010
0000
0001
0000
0100
0000
0010
0000
0100
0000
0001
0000
,
0010
0000
0100
0000
0010
0000
0001
0000
1000
0000
0100
0000
1000
0000
0010
0000
1000
0100
0000
0000
0100
0000
0010
0000
0001
0000
0100
0000
0010
0000
0100
0000
,
0001
0010
0100
0010
0001
1000
0010
1000
0100
1000
0010
0100
0001
0100
0010
0100
,
1001
0000
0001
1000
0001
0000
1001
0000
0100
0010
0001
0000
0110
0000
0001
1000
,
0100
0000
1010
0000
0001
0100
0010
0000
0101
0000
0001
0010
0100
1000
0001
0100
,
0010
0000
0000
0000
;
